Uncategorized

Free Video Editor 1 Download

Posted on

Virus free DOWNLOAD

The fastest way to AVI (DivX, XviD, MPEG-4), MPEG 1 and 2 video editor! Free video editing software Video Editor is a free video files that you delete unwanted parts without re-encoding is provided. And “without re-encoding” means without losing any of the original duKalitate !!! This lossless video editing, which quickly iawn.
Free Video Editor 1 Torrent Cefnogi many MPEG files: MPEG 1, MPEG 2 and MPEG 4, even AVI, MOV, MP4 (MPEG-4), M4V files, MPG and FLV, including DivX and XviD,

Hard work like video editingsounds, aleMnogae anhawsteryn degree program you choose to edit your fideos.AVS Video araberakoaEditore makes video editing easier than it seems at first glance. Classic design editor, media library, timelineaffenestr forecast remains dedicated to different areas. Plus AVS Video Editor includes transition effects, loads of video effects, text and video that you spice up your whole creative process fideo.Mae’r covered AVS Video Editor will help you to capture video from a wide variety of external sources, so your creation format keep your goals by the end of the platform: Computerfitxategia, burn CDs, multimedia device or a page we.AVS power and ease of use Video EditorIt’s a great combination, especially users the tools you need to edit the video, while maintaining a reasonable level of difficulty all along that darparuy.

.

  1. Free Video Editor 1 Free Download Torrent

Get uTorrent

Torrent vote 23 5

Sausage Party 2016 DVDRip free torrent download

Posted on

Virus free DOWNLOAD

Sausage trying to uncover the truth about his existence.
http://rekausaha.com/sing-2016-pirate-free-torrent-download/

Director Greg Tiernan, Konrad Vernon

Author: Kyle Hunter (scenario), Ariel Shaffir (scenario)

Stars: Seth Rogen, Kristen Viig, Jonah Hill

Genre: Animation | adventure | Comedi | fantasy

Country: United States

language is english

thxsarang

CM8 Doing It Right The First Time

source:

Video: 1080p HDCAM OVN Matine

Audio: Bahasa Inggeris OVN HK Mic matinee

thank you

comments

Is proud to work with two groups smonajbolje knowmatinee and unknown

We enmaakten unknovn-nest-CM8 Combo exclusive first release to the public.

kamiVIP have chosen this week in advance, you might be one of them!

Many come !!!

Now we have decided to release him so that everyone can come true quality.

coding:

The camera is very nice certificate required sleds and perspective

brightness, contrast and sharpness are perfectly done anything.

Audiocantik,almost sounds like a line, nameštenai lipsinced video.

You veri nice

enjoy

Video: 720k256 @ bitrate 2000 2PASS

Audio: Bahasa Inggeris AC3 HK microphone

Example: On

common

Full name:

Format: AVI

Format / Info: Audio Video Interleave

File size: MiB

21mn 1 hours:

In keseluruhanKadar bit: 2267 Kbps

Writing application: VirtualDubMod

Vriting libraries: VirtualDubMod build 1853 / release

video

ID: 0

MPEG-4 Visual

Format profile: Advanced / * * /

format settings, BVOP: 2

format settings,Kpelle: yes

Format settings, GMC: No points warp

format settings, Matrix: Default ()

Mukingo mode: Packed bitstream

codecID: XVID

Codec ID / Hint: DivX

21mn 1 hours:

Bit rate: 1999 kbps

Width: 720 pixels

Length: 256 pixels

Display aspect ratio:

fps frame rate

Color space: IUD

Colorimetri: 4: 2: 0

Bit Depth: 8 bit

Scan Type: House

Compression: Lossy

Bits / (Pixel * Frame):

Stream size: MiB (88%)

VritingLibrari: XviD (UTC 2008-12-04)

sound

ID: 1

Format: AC-3

Format / Info:Audio Coding 3

Fashion extension: CM (complete main)

format settings, big endian: Great

Codec ID: 2000

21mn 1 hours:

Bit rate mode: Variable

Bit rate: 256 Kbps

Channel (s): 2 channels

Channel positions: Front: LR

Sampling: kHz

Bit depth: 16-bit

Compression: Lossy

Stream size: 150 MiB (11%)

Alignment: Aligned on interleaves

Interleave, duration: 33 ms (Video)

Shooting, preload duration: 500 ms

.

  1. Sausage Party 2016 Full Movie Torrent Download

Get uTorrent

Torrent vote 14 4

Call of Duty 4 download torrent

Posted on Updated on

Virus free DOWNLOAD

for:

Year: 2016

Genre: Action (Shooter) / 3D first-person /

Developer: Infinity Ward

Publisher: Activision

Type of publication: pack

Language: photo | slightly

Audio Language: photo | slightly

Spanking: Closing (MEX)

System Requirements:

Operating System: Windows 7 64-bit / 64-bit Windows 8 /

Windows 64-bit / 64-bit Windows 10

processor:Intel Core i3-530 @ GHz /

AMD Phenom II X4 810 GHz @

Memory: 8GB

Video Card: NVIDIA GeForce GTS yn450 @ 1GB / ATI Radeon HD 7850 1GB @

Sound Card: Sound device compatible with DirectX

free hard disk space: 80 GB

description:

Call of Duty: Modern Warfare remastered – reissue of Call of Duty 4: Modern Warfare,

delivered in digitalformat, full Collector Edition Call of Duty: Infinite

War – Legacy Edition, Digital Deluxe Edition and Legacy Pro. The game will

Consumers in a new area of ​​modern warfare and enjoy modern recycling graphics, animation,

resolution and detail uwchgweadau, sistematailuminaciónnovos special effects

and effectsThey are impressive.

repacking resources

Call of Duty: Modern Warfare – remastered

cut trailer for the game, the animated menu loans multiplayer / no recoded

Version of the game –

. http://rekausaha.com/call-of-duty-infinite-warfare-pc-download-torrent/

  1. Call of Duty 4 Download Torrent

Get uTorrent

Torrent vote 16 0

Call of Duty Infinite Warfare RELOADED bunnyboo pc torrent

Posted on

Virus free DOWNLOAD

Nerve

Infinite Call of Duty Warfare (with) Activision

11/2016: ….. .. PROTECTION …….: Arxan + couple

1: ………. DISC (S) .. ……..: Action, Adventure

Call of Duty: Endless War players will be on an unforgettable

travel as they engage in heroic battles of the Earth outside our

Atmosphereagainst merciless enemy faction that the path threatens us

life.

1. Unrar.

2. Burn or mount the image.

3. Install the game.

4. Copy the cracked content from the / CrackKatalogthe picture

Your game installation directory.

5. Play the game.

6. Support software developers. If you buy this game!

Minimum requirements:

OS: Windows 7 64-bit or higher

Processor: Intel Core i3-3225 @ or equivalent

Memory: 8GB RAM

Graphics: NVIDIA GeForce GTX 660 2GB / AMD Radeon HD 7850 2GB

DirectX: Version Life

Storage: 70 GB of free space

Sound Card: DirectX 11 Compatibility

Additional Comments: can change disk space requirements in time

screens:

Call of Duty Infinite Warfare RELOADED

endless Callof Duty Warfare (with) Activision

11/2016: ….. .. PROTECTION …….: Arxan + couple

1: ………. DISC (S) .. ……..: Action, Adventure

Call of Duty: Endless War players will be on an unforgettable

travel as they engage in heroic battles of the Earth outside our

The atmosphere against merciless enemy faction that the path threatens us

life.

2. Burn or mount the image.

3. Install the game.

4. Copy the cracked content from the / Crack on the image to

Yourgame installation directory.
http://rekausaha.com/call-of-duty-infinite-warfare-pc-download-torrent/

5. child.

6. Support the software developers. If you buy this game!

Note: We have everything to offer as earlier versions seedboxes, source references

account, contact us

Seed Statistics: 20-400 GB to about 10 MiB / C / 20 slots for a power

How to MAXSPEED (Utorrent) gain

Torrent Client – Preferences – Bandwidth – the number of connections – Set approximately every 500dlya

Torrent Client – Preferences – BiTorrent – encryption protocol – Mandatory

BandwidthAllocation – High (Setdownload / upload limit – Unlimited)

Stop Other Active Torrents – Start downloading and wait for connections.

Enjoy and Seed for at least a ratio of 1: 1. Do not forget to say thanks / leave reviews.

For more information, only crack, patch, serial, keygen, trainers, CRACKFIX, UPDATES,

system requirements, codes for the game, the NFO, gameplay trailers, free download

PC ISO, demos, screenshots, visit some RELEASE site or theofficial web pages.

If the game does not work for you, and then update the drivers, DirectX Components

in NetFramework / REDIST / etc Run as administrator, changes Compatibility

mode, on / off access to the Internet, copy crack / overwrite other tweaks, update the computer, etc.

Search the websites of the scene release for any future updates / Desktop Status / etc and

other quality file sharing sites, or simply to use – othertorrent search functions

Stop using blunt AV such as AVG false positive messages in disrepair or make use of ESET

MAXSPEED FREEGAME full load 2008-2016

.

  1. Call of Duty Infinite Warfare RELOADED download

Get uTorrent

Torrent vote 10 3

The Jungle Book 2016 Free Torrent Download

Posted on

Virus free DOWNLOAD

The story:

^ The threat of the tiger Shere Khan Mowgli fled into the woods. A journey of self-discovery Panther and Baloo the bear, Mowgli was led by Jeroen established, and with the beasts of the issue as to take it.

general:

: Matroska

File: MiB

: 1h 45mn

: 3607 Kbps

: Bluray

Encoder ……. JYK

video:

Video: AVC

Video: Core x264 r2638 148 7599210

2850 Kbps

Marco: Yes

1920 pixels

1036 pixels

Part 1 ::

Audio # 1:

: DTS

755 Kbps

6 channels

sampling: Eli

English

securities

language

SRTInglés…………………..

SRT ………………….. Arabic

SRT ……………… http://rekausaha.com/?p=969
….. German

SRT ………………….. Greek

SRT ………………….. Italian

SRT ………………….. Romania

================================================== ==================

================================================== ==================

================================================== ==================

================================================== ==================

video

ID: 1

Format: AVC

format/ Info: Advanced Video cod

Profile format / * /

The definitions of format, CABAC: Yes

The definitions of format, rephrase: 4 tablets

ID code: V_MPEG4 / ISO / AVC

Duration: 1h 45min

bit rate: 515 Kbps 7

Width: 1920 pixels

Height 1,040 items

Display ratio :: 1

mode frame rate: Constant

Frame rate: (24000/1001) Even

color space, YUV

Chroma Subsampling: 4: 2: 0

Bit Depth: 8 bits

Type Scan: Progressive

In vain / (Pixel * Frame)

sizeStream: Gib (82%)

Oxford: x264 core 148 r2705 3f5ed56

Language: English

James: Yes

big, not

================================================== ==================

hearing

State: 2

Format: DTS

Format / Info: Map of Digital Systems

Down 16

The definitions of format, Big endianness

ID code: A_DTS

Duration: 1h 45min

Bitrate mode: Constant

bit rate: 509 Kbps 1

The price (s): 6 channels

places Cost: front: 100 50 Side: it ended

samplingRate Eli

Frame rate: SPF (SPF 512)

slightlydepth: 24 members

Compression mode: Lossy

córregoTamaño: Gib (16%)

Language: English

James: Yes

big, not

================================================== ==================

text

ID: 3

Format: UTF-8

ID code: S_TEXT / UTF8

This cod / Info: UTF-8 text

Language: English

James: Yes

big, not

================================================== ==================

menu

0:00 down: 00: 00

12:00 to 00: 00

0:05: down: 00: 5

0:09: down: 00: 9

0:12: down: 00: 12

12:16:Down: 00: 16

0:21: down: 00: 21

0:27: down: 00: 27

0:35: down: 00: 35

0:43: down: 00: 43

0:48 until 00 48

0:53: down: 00: 53

0:58: down: 00: 58

1:05: down: 1: 5

1:10: down: 1: 10

1:17 to 1: 17

1:20: down: 1: 20

1:24: down: 1: 24

1:30: down: 1: 30

1:35: down: 1: 35

================================================== ==================

Special thanks to FGT

================================================== ==================

::::::: ::::: Screens

================================================== ==================

====================================================================

Greetz Sam | oziman | juggs | MDF | surendra | psixi | Master | MGB | 3li | tomcat12 | BADASSMEDIA | Carmen | ETRG and other administrators are ExtraTorrent |.

================================================== ==================

.

  1. The Jungle Book 2016 tpb Movie Torrent Download

Get uTorrent

Torrent vote 42 2

Ice Age Collision Course 2016 movie download torrent

Posted on

Virus free DOWNLOAD

Ice Age Collision Course READNFO 2016 720p HDRip x264 MP3 Titan.

IMDB:

Ice Age Collision Course READNFO 2016 720p HDRip x264 MP3

file types: avi

Duration: 1:34:22

Video size: 1280k720

Number of images:

Bitrate: 3641 kb / s

Video codec: H264

Audio codec: AC3

Audio Type: Stereo

Click on the photo size imagefull

Me, Diego, and Sid Buck refused to join the meteor strike to destroy the world.

Director: Mike Thurmeier, Galen T. Chu

Author: Michael J. Wilson (screenplay), Michael Berg(Screenplay)

stars: Rai Romano, Denis Lear, John Leguizamo

Genre: Animation | adventure | comedi | famili | Sci-fi

Country: United States

English

Release Info:

Video: MKV Video: AVC 720k336 30fps

Audio MP3 digital audio

English

Subtitle: N / A

Source: v: 720pLATINO O: Ovn!

Sample 2 included

Encoder: CPG

note:

work in Latin sources and sound synchronizedigital here. Perfectly watchable as ever!

2 samples involved.

will be a V2 with Ruskiuskoro! .
http://rekausaha.com/the-conjuring-2-movie-download-torrent/ ..

Scratsepic adventure for neuhvatkivoj acorn catapults him sauniverse where he accidentally launches a series of cosmic events that transform the world and threatens to Ice Age. To save themselves, Sid, Manny, Diego, and the rest of the herd must leave their homes and go looking full of comedy and adventure, travel to exotic new countries and meeting with many colorful new characters.

Me,Diego, and Sid Buck refused to join the meteor strike to destroy the world.

Director: Mike Thurmeier, Galen T. Chu

Author: Michael J. Wilson (screenplay), Michael Berg (screenplay)

stars: Rai Romano, Denis Lear, John Leguizamo

Genre: Animation | adventure | comedi | famili | Sci-fi

Country: United States

English

thk hives

CM8 Doing It Right The First Time

sources:

Video: New Russian HDCAM

Audio: English Digital audio Line (thx CPG)

thanks

remarks:

Russian waited for better qualityVideo is awesome, skorokvalitet Screener

no shaking, no focus issues, dark scenes are perfect, as perfect as the camera can be.

encoding:

As mentioned qualityis isangfixed perfect just brightness, contrast and RGB

Audio synchronization took me 12h vasnt funni generally to be LIPSInc 6h after I almost gave up, but I have pushed for you

further 6h and all LIPSInc.

Russian video was done with variable bitrate,This is a pie thumbnailssecond is about 23-30 frames, plz people use konstantabitrate thx

and it is a job, but the result is perfect

will not be better than this retail

please

Oh before I forget to have a new email address and we need a new team.

Naghahanappara those guys who can get qualitythings fully live hd desirable or DVD-R and DVD-SCR OFK, English line audio, or good hkmic.

you are allyou need msg me under the / * * /

Addies old suffered so just get a new

thanks

Video: 720k304 2000 @ bitrate 2pass

Audio: MP3 audio English DigitalniLine

For example: turned

general

General Complete name:

Format: AVI

Format / Info: Audio Video Interleave

File size: MiB

Duration: 1h 27mn

Overall bit rate: Kbps 2266

Vriting application: Nandub

Vritinglibrari: VirtualDubMod build 1853 / release

video

ID: 0

Format: MPEG-4 Visual

formatProfile: Advanced / * */

Format settings, BVOP: 2

Format settings, Kpelle: Yes

Format settings, GMC: No varppoints

formatpodešavanja, Matrix: Default ()

Mukingo mode: Packed bitstream

Codec ID: XVID

Codec ID / Hint: DivX

Duration: 1h 27mn

Bit rate: Kbps 2000

Width: 720 pixels

Height: 304 pixels

Display aspect ratio: 1

Frame rate: FPS

Color Space: the IUD

Colorimetri: 4: 2: 0

Bit depth: 8 bits

Scan Type: house

Compression: Lossy

Bits / (Pixel * Frame):

Stream size: MiB (88%)

Vriting librari: Eng (2008/12/04 UTC)

sound

ID:1

Format: AC-3

Format / Info: Audiocoding 3

Extension mode: CM (complete main)

Format setting, big endian: Big

Codec ID: 2000

Duration: 1h 27mn

Bit rate mode: Variable

Bit rate: 256 Kbps

Channel (s): 2 channels

Channel positions: Front: L R

Sampling: kHz

Bit depth: 16 bits

Compression: Lossy

Stream size: 160 MiB (11%)

Alignment: Aligned on interleaves

Interleave, duration: 40 ms (video frames)

Interleave, preloadduration: 500 ms

.

  1. Ice Age Collision Course 2016 DVDRip torrent townload

Get uTorrent

Torrent vote 41 5

MessengerTime 9 1 x86-x64 Update Download

Posted on

Virus free DOWNLOAD

MessengerTime can use full desktop applications, such as Skype or Yahoo! Messenger, version of Facebook Messenger. It is fully compatible with the service Facebook Messenger and other users of its billion plus,Despite these issues are not so likely to change. MessengerTime features all the usual Facebook Messenger for fast and well-designed chassis, as well as improvements to yagoDadatak even better than it already is.If you use Facebook Messenger at home, give it a try.

.
http://rekausaha.com/?p=1172

  1. MessengerTime 9 1 torrent

Get uTorrent

Torrent vote 42 3

The Walking Dead S07E12 German full download torrent

Posted on

Virus free DOWNLOAD

He knew the world was gone. Covers a multitude of Apocalyptic proportions, creating the world of the living and the dead, swept again feed. After a few months the company has broken into pieces. In short, a great start in the world ruled by the dead, alive this day.
http://rekausaha.com/the-rachael-ray-show-s11e18-german-full-download-torrent/
Robert Kirkman comic book series of the same name, this advice to the world AMC zombie Apocalypse. Rick Grimes policeman follows from the series of locks derwacht in mundout with Zombies wasted. I want to know the kind of a group of zombies and the rest of the living against the tyrant of Argoswar march.

I can not get enough of The Walking Dead AMC scored? Be not solicitous therefore, to live in a series after the first hit AMC is more than a state of fright, which appear under various forms to catch the zombies. From an audience with the reply to the questions from the ingestion of an actor, and by reason of which Chris Hardwick on the face of the forces of exciting live show, which the wind can become the flabelloet Talking Dead.

.

  1. The Walking Dead S07E12 Clean Audio free download torrent

Get uTorrent

Torrent vote 14 3

Angry Birds 2016 French Movie Torrent Download

Posted on

Virus free DOWNLOAD

land:

3D animated film comedy in Angry Birds, we will finally find out why the birds are so angry. The film takes us to an island populated entirely, a bird that does not fly happy – almost. In this paradise, Bob (Jason Sudeikis, Trip family, Horrible Bosses), the bird with the problem of temperament,Even fast (Josh Gad in the role of the first animation Frozen), and the pump variable (Danny McBride, This is the place to the east and below) has always been an outsider. or kadaOvo island Piggies visitadapor dark green, it is up to this exemption is not possible to know that pigs do. With a voice cast of fun, all the stars, includingBill Hader (Trainvreck, Inside Out), Maya Rudolph (Ladies, sisters) and Peter Dinklage (Game of Thrones), and Kate McKinnon (Saturday Night Live, Ghostbusters), Keegan Michael Main (Key Peele), Tony Hale (Veep , Arrested Development), Tituss Burgess (Unbreakable Kimi Schmidt), Ike Barinholtz(Neighbors, sisters), …

in general:

Matroska

file: Gib

1h 37mn

3: 606 kbps

: BluRay

Encoder ……. JIK

English

video:

Video: AVC

Video: Intel Core k264 r2638 148 7599210

2850 kbps

Schedule: FPS

1920 pixel

1040 pixels

view :: 1

Audio # 1:

DTS

755 Kbps

6 channels

Sampling: kHz

English

[

What new film MNC surune le peuple kui entirement doiseauk heureuk et ne pas ou want tested. Dans ce paradise, Red, Oiseau avec that problme full color, TRS will release Chuck, you pumped ont mis limprvisibletoujourstlcart. More lorskuarrivent de cochons by Green South mistrieuk, serum mission Groupe Pariahdcouvrir that Cochons box. Rio 2016 free

.

  1. Angry Birds 2016 full torrent

Get uTorrent

Torrent vote 18 1

Steve Harvey S05E11 French fast-dl Dual Audio download free torrent

Posted on

Virus free DOWNLOAD

Steve American syndicated show takes a whole. Harvey Collaboration and NBCUniversal Endemol, the show debuted September 4, 2012 subjects covered include life and questions on how to improve ways.
The Walking Dead S06E15
Saintaliquando a conference, great, the name of your glory.

.

  1. Steve Harvey S05E11 uTorrent Bitsy Free Download Torrent

Get uTorrent

Torrent vote 33 4